#TITLE:KILL BARNEY;
#SUBTITLE:;
#ARTIST:DJ BANZAI;
#TITLETRANSLIT:;
#SUBTITLETRANSLIT:;
#ARTISTTRANSLIT:;
#CREDIT:;
#BANNER:killbarney-banner.BMP;
#BACKGROUND:killbarney-bg.bmp;
#LYRICSPATH:;
#CDTITLE:./CDTITLES/DANCE DANCE REVOLUTION EXTREME.PNG;
#MUSIC:Kill Barney.mp3;
#OFFSET:-4.887;
#SAMPLESTART:18.360;
#SAMPLELENGTH:12.000;
#SELECTABLE:YES;
#BPMS:0.000=48.000,7.250=300.000,136.000=260.000,136.500=220.000,137.000=180.000,137.500=140.000,138.000=120.000,138.250=47.999,141.750=300.000;
#STOPS:7.250=4.340
,138.250=0.480
,141.750=2.920
;
#BGCHANGES:;
// cache tags:
#FIRSTBEAT:0.000;
#LASTBEAT:439.000;
#SONGFILENAME:Songs/Music V.I.P ^_^/Kill Barney/killbarney.sm;
#HASMUSIC:1;
#HASBANNER:1;
#MUSICLENGTH:114.215;
// end cache tags

//---------------dance-single - ----------------
#NOTES:
     dance-single:
     :
     Hard:
     10:
     0.868,1.000,0.236,0.061,0.048,660.000,27.000,7.000,0.000,0.000:
1001
0100
0010
0000
1001
0010
0100
0000
0011
0100
1000
0000
1010
0000
0001
0100
,
0110
0000
0001
1000
1100
0000
0001
0100
0011
0001
0100
0010
1001
0000
0000
0000
,
1000
0001
0100
0010
,
1000
0010
1000
0001
,
0100
0001
1000
0100
,
0010
0001
0100
0001
,
1000
0001
1000
0000
0010
0000
0100
0000
,
0001
0100
0001
0000
1000
0000
0010
0000
,
0100
0001
0100
0000
0010
1000
0010
0000
,
0101
1001
1010
1001
,
0100
0010
1000
0000
0001
0000
0100
0000
,
0010
0100
0001
0000
1000
0000
0001
0000
,
0100
0010
1000
0000
0001
0010
0100
0000
,
1000
0001
0100
0000
0010
0000
1000
0000
,
0001
0100
0010
0000
1000
0000
0100
0000
,
0010
0001
1000
0000
0100
0000
0001
0000
,
1000
0010
1000
0010
0100
0001
0100
0001
,
1000
0001
0100
0010
1000
0100
0010
0001
,
0100
0000
0010
0100
0010
0000
1000
0100
,
1000
0000
0001
0100
0001
0000
0010
0100
,
0010
0000
0001
1000
0001
0000
0100
0010
,
0100
0000
0001
0010
0001
0000
1000
0010
,
1000
0000
0010
0100
0010
0000
1000
0001
,
1000
0000
0001
0010
0001
0000
0100
0001
,
0100
0000
0010
1000
0010
0000
0100
0010
,
0100
0000
0001
0010
0001
0000
1000
0010
,
1000
0000
0001
0100
0010
0000
1000
0100
,
0010
0000
0001
1000
0010
0000
0100
0001
,
1000
0000
0010
0100
0001
0000
0100
0010
,
1000
0000
0001
0100
0010
0000
0010
0000
,
1000
0100
1000
0100
0010
0001
0010
0001
,
0100
0010
0100
0010
1000
0001
1000
0001
,
0100
0010
1000
0100
0010
0001
0100
0001
,
0010
0100
1000
0010
0100
0001
0100
0010
,
2002
0000
0000
0000
0000
0000
0000
0000
0000
3003
1100
0100
0010
0000
0101
0100
,
0010
0000
1010
1000
0001
0000
0110
0000
0000
0000
0000
0000
1000
0000
0100
0000
,
1000
0100
1000
0100
1000
0000
0001
0100
,
0001
0100
0001
0100
0001
0000
1000
0010
,
1000
0010
1000
0010
1000
0000
0001
0100
,
0001
0100
0001
0100
0001
0000
1000
0000
,
0010
0000
0100
0000
0001
0000
1000
0010
,
0100
0001
0001
0100
,
0010
0000
1000
0000
0001
0000
0010
0100
,
1000
0000
0001
0000
0100
0000
0001
0100
,
0010
0000
1000
0010
0100
0000
0001
0100
,
0010
0000
1000
0001
0010
0000
0011
0000
,
0110
1100
1001
0200
,
0000
0000
0000
0000
0300
0000
0010
0100
,
0010
0001
0010
0000
0000
0000
0001
0100
,
0010
0100
0010
0000
0000
0000
1000
0100
,
1000
0010
1000
0001
1000
0010
1000
0000
,
0000
0000
2002
0000
3003
0000
1000
0100
,
0010
0000
0001
0100
0010
0000
1000
0010
,
0100
0001
0010
0100
1000
0000
0001
0100
,
0010
1000
0010
0100
0001
1000
0100
0010
,
0001
1000
0010
0100
0001
1000
0001
0000
,
1000
0100
1000
0000
1000
0100
1000
0000
,
0001
0100
0001
0000
0001
0100
0001
0000
,
1000
0010
0100
0000
0001
0100
0010
0000
,
1000
0010
0100
0000
0001
0100
0010
1000
,
0001
0000
0100
0000
0010
0000
1000
0010
,
0100
0000
0001
0000
1000
0000
0001
0100
,
0010
0000
1000
0001
0100
0000
0010
1000
,
0001
0000
1000
0000
0010
0000
1000
0010
,
0100
0000
0001
1000
0010
0000
1000
0010
,
0100
0000
0001
0100
0010
0000
1000
0010
,
1000
0010
0100
0001
0100
0001
1000
0100
,
0010
0001
0100
0010
1000
0001
1000
0000
,
1000
0000
0010
0100
0001
0000
1000
0000
,
1000
0000
0001
1000
0010
0000
0100
0000
,
0100
0000
0001
0100
0010
0000
1000
0000
,
1000
0000
0001
0100
0001
0000
1000
0010
,
0100
0001
1000
0010
0100
0000
0001
0100
,
0010
1000
0001
0010
0100
0000
1000
0001
,
0100
0001
0010
0100
1000
0001
0100
0010
,
1000
0010
0100
0001
1000
0000
0001
0100
,
0001
0010
0001
1000
0001
0000
0100
0010
,
1000
0010
0100
0001
0100
0000
0001
0010
,
0100
1000
0100
0010
0001
0000
0010
0100
,
0010
0001
0010
0100
0010
0000
0001
1000
,
0001
1000
0010
1000
0010
0000
1000
0100
,
1000
0010
1000
0100
1000
0000
0001
0100
,
0001
0010
0001
0100
0001
0000
1000
0001
,
0100
0001
0010
0100
1000
0001
1000
0000
,
0001
0100
0001
0000
1000
0100
1000
0000
,
0001
0010
0001
0000
1000
0010
1000
0000
,
0010
0100
0010
0000
1000
0001
1000
0000
,
0100
0010
0100
0000
1000
0100
1000
0000
,
0010
0100
0001
0000
1000
0010
0100
0000
,
0001
0010
0100
0000
1000
0010
0100
0000
,
0010
1000
0001
0000
0100
0010
1010
0000
,
0101
0000
0110
0000
1001
0000
1000
0100
,
1000
0000
0010
0000
0100
0000
0001
0100
,
0001
0000
1000
0000
0010
0000
0100
0001
,
0010
0000
0100
0000
1000
0000
0001
1000
,
0010
0000
0100
0000
0001
0000
1000
0010
,
1000
0000
1000
0100
1000
0000
0001
0100
,
0001
0000
0001
0010
0001
0000
0100
0010
,
0100
0000
0010
0100
0010
0000
1000
0001
,
1000
0000
0001
1000
0001
0000
1000
0010
,
0100
0000
0001
0100
0010
0000
1000
0010
,
0100
0001
1000
0100
0010
0000
0001
0100
,
0001
0000
1000
0010
0100
0000
0010
1000
,
0001
0010
0100
1000
0010
0000
1000
0010
,
0100
0001
1000
0100
0010
0001
0100
0001
,
1000
0010
0100
0001
1000
0001
0100
0010
,
1000
0001
0010
0100
1000
0010
0100
0001
,
1000
0010
0100
0001
1000
0100
2002
0000
,
0000
0000
0000
0000
,
0000
0000
0000
3003
;

//---------------dance-single - Copied from----------------
#NOTES:
     dance-single:
     Copied from:
     Medium:
     9:
     0.635,1.000,0.263,0.254,0.018,449.000,30.000,29.000,0.000,0.000:
1000
0000
0010
0000
0100
0000
0001
0000
0100
0000
1000
0000
0001
0000
0100
0010
,
1000
0000
1001
0000
0110
0000
0001
1000
0001
0010
0100
1000
0001
0000
0000
0000
,
1000
0100
0010
0001
,
1000
0010
1000
0001
,
0100
0001
1000
0010
,
0100
0001
1000
0100
,
0010
0001
0100
0001
,
1000
0010
1000
0001
,
0100
0001
1000
0010
,
1000
0001
1000
0010
,
0100
0001
0100
0010
,
1000
0001
1000
0100
,
1000
0010
0100
0001
,
1000
0010
1000
0001
,
0100
0001
1000
0010
,
0100
0001
0100
0010
,
1000
0001
1000
0010
,
0220
0330
2002
3003
,
0100
0001
0100
1000
,
0100
0001
0100
1000
,
0010
0001
0010
1000
,
0010
0001
0010
1000
,
0010
0100
0001
0010
,
0100
0001
1000
0010
,
0100
0001
1000
0100
,
0001
0010
1000
0001
,
1000
0100
1000
0010
,
0100
0001
0010
0100
,
0001
1000
0010
0100
,
0001
1000
0100
1000
,
0010
0100
0001
0010
,
0001
1000
0010
0100
,
0001
0100
0010
1000
,
2002
3003
0010
0100
,
2002
0000
0000
0000
0000
0000
0000
0000
0000
3003
0001
0000
0100
0000
1000
0000
,
0010
1000
0001
1001
0000
0000
0200
0000
,
0000
0001
0000
1000
,
0000
0001
0300
0020
,
0000
1000
0000
0001
,
0000
1000
0030
1000
,
0010
1000
0001
0100
,
0001
0010
1000
0100
,
0001
1000
0010
0100
,
0001
1000
0010
0100
,
0100
0001
0001
1000
,
1000
0010
0010
1000
,
0010
0100
0001
0200
,
0000
0000
0000
0000
0300
0000
0001
0100
,
0001
0100
0001
0000
0000
0000
1000
0100
,
1000
0100
1000
0000
0000
0000
0010
0100
,
0010
0100
0010
0100
0010
0100
0010
0000
,
0000
0000
2002
0000
3003
0000
1000
0100
,
1000
0000
0001
0000
0100
0000
0010
1000
,
0010
0100
0001
1000
,
0010
0200
0300
2002
,
0000
0000
3003
2000
,
0000
0010
0000
0100
,
0000
3001
0000
0002
,
0000
0100
0000
0010
,
0000
1003
0000
0001
,
0100
1000
0010
0001
,
1000
0010
0100
0001
,
1000
0010
0100
0001
,
1000
0000
0001
0000
0100
0000
0010
1000
,
0010
0100
0001
1000
,
0100
0000
0010
0000
0001
0000
1000
0001
,
1000
0000
0010
0000
0100
0000
0001
0010
,
0001
1000
0010
0100
,
0010
1000
0001
0010
,
0100
1000
0001
0100
,
1000
0010
0100
0022
,
0033
0000
2200
0000
3300
0000
0001
1000
,
0001
0000
1000
0100
1000
0000
0010
0100
,
0010
0000
1000
0100
1000
0000
0001
0000
,
0100
0010
1000
2002
,
0000
0000
3003
0100
,
0010
1000
0001
0100
,
0001
1000
0100
0010
,
0001
1000
0010
0100
,
0001
0000
1000
0000
0001
0000
0100
0010
,
0100
0000
0001
0000
0010
0000
0100
1000
,
0100
0000
0010
0000
0001
0000
1000
0010
,
1000
0000
0010
0000
0100
0000
0001
0100
,
0001
0000
1000
0000
0100
0000
0010
0001
,
0010
0000
0100
0000
1000
0000
0001
1000
,
0001
0100
0010
1000
,
1000
0010
0010
0200
,
0300
2002
3003
0010
,
1000
0001
1000
0010
,
0100
0001
0100
1000
,
0010
0001
1000
0100
,
0010
0000
0001
0000
0100
0000
0010
1000
,
0010
0000
0100
0000
0001
0000
1000
0100
,
1000
0000
0010
0000
0100
0000
0001
0010
,
0001
0000
1000
0000
0010
0000
0100
0001
,
0100
0010
1000
0101
,
0101
1010
1010
0110
,
0110
1001
1001
0101
,
0011
1001
1010
1100
,
0110
0000
0011
0000
1001
0000
0100
0010
,
1000
0000
0001
0000
0010
0000
0100
1000
,
0010
0000
0100
0000
0001
0000
1000
0010
,
0100
0000
0001
0000
0100
0000
0010
0100
,
0001
0000
1000
0000
0010
0000
1000
0001
,
0100
0000
0010
1000
0001
0000
0010
0100
,
1000
0000
0001
0100
0010
0000
1000
0100
,
0010
0001
0100
0010
1000
0001
0100
0010
,
1000
0001
0010
0100
1000
0000
2002
0000
,
0000
0000
0000
0000
,
0000
0000
0000
3003
;

//---------------dance-single - Copied from Copied f----------------
#NOTES:
     dance-single:
     Copied from Copied f:
     Easy:
     6:
     0.438,0.913,0.254,0.219,0.000,296.000,29.000,25.000,0.000,0.000:
1000
0001
1000
0001
0100
0010
0100
0010
,
1001
1001
1001
0010
1000
0010
0100
0000
,
0001
0000
0100
0000
,
0010
0000
1000
0000
,
0001
0000
1000
0000
,
0010
0000
0100
0000
,
0001
0100
0001
0000
,
1000
0100
1000
0000
,
0010
0100
0010
0000
,
0001
0000
1000
0010
,
0100
0000
0010
1000
,
0001
0000
0100
0010
,
1000
0001
0010
0100
,
2000
0000
0000
3000
,
0001
0100
0010
0000
,
1000
0001
0100
0000
,
0001
0010
0100
1000
,
0020
0000
0000
0030
,
1000
0000
0010
0000
,
0100
0000
0001
0000
,
1000
0000
0010
0000
,
1000
0000
0100
0000
,
0001
0010
0100
0000
,
1000
0010
0100
0000
,
0101
0000
1010
0000
,
1001
0000
0100
0010
,
1000
0000
0001
0100
,
1000
0000
0010
1000
,
0001
0100
0010
1000
,
0002
0000
0000
0003
,
1000
0000
0010
0000
,
1000
0000
0100
0000
,
0001
0100
0010
1000
,
0001
0010
0100
1000
,
2002
0000
0000
0000
0000
0000
0000
0000
0000
3003
0100
0000
0010
0000
1000
0000
,
0000
0001
0100
0010
0000
0000
0002
0000
,
0000
0000
0000
2003
,
0000
0000
0000
3020
,
0000
0000
0000
0230
,
0000
0000
0000
0301
,
0000
1000
0000
0010
,
0000
1000
0000
0010
,
0000
0100
0000
0001
,
0000
1000
0000
0010
,
0100
0001
0000
1000
,
0100
0010
0000
0001
,
1000
0001
1000
0100
,
0000
0010
0001
0100
,
0000
0010
1000
0001
,
0000
0100
0010
1000
,
0000
0001
0100
0001
,
0000
0220
0330
1000
,
0001
0100
0010
1000
,
0001
1000
0010
0200
,
0000
0302
0000
2000
,
0000
0000
3003
0100
,
0000
0100
0000
0100
,
0000
0100
0000
0010
,
0000
0010
0000
0010
,
0000
0010
0000
1000
,
0010
1000
0000
0001
,
0100
0001
0000
1000
,
0010
1000
0000
0001
,
0010
0001
0000
1000
,
0010
0100
0000
0001
,
0100
0010
0000
1000
,
0001
0100
0010
1000
,
0000
0001
0100
0010
,
0000
1000
0010
1000
,
0000
0001
0100
0010
,
1000
0100
0010
0002
,
0003
0220
0330
1000
,
0001
0100
0000
0010
,
1000
0001
0000
1000
,
0100
0010
0001
0202
,
0000
0000
0303
0010
,
0000
0001
0000
1000
,
0000
0001
0000
0100
,
0000
0001
0000
1000
,
0000
0010
0000
1010
,
0000
0101
0000
1001
,
0000
0110
0000
1010
,
0000
0101
0000
1001
,
0000
0100
0010
1000
,
0000
0001
0010
0100
,
0000
1000
0010
0100
,
0000
0001
0100
0010
,
0000
1001
0000
0100
,
0001
1000
0010
0100
,
0001
1000
0100
0010
,
0001
0100
0001
2002
,
3003
0220
0330
0001
,
0000
1000
0000
0010
,
0000
0100
0000
0001
,
0000
1000
0000
0100
,
0000
0010
0000
0101
,
0000
1010
0000
1001
,
0000
0110
0000
1100
,
0000
0011
0000
0110
,
0000
1001
0000
0001
,
0100
0010
0000
1000
,
0010
0100
0000
0001
,
0100
0010
0000
1000
,
0100
0010
0000
0001
,
0100
0001
1000
0010
,
0100
0001
1000
0010
,
0100
0001
0010
0100
,
1000
0010
0100
2002
,
0000
0000
0000
0000
,
0000
0000
0000
3003
;
